  0
SECTION
  2
HEADER
  9
$ACADVER
  1
AC1009
  9
$DWGCODEPAGE
  3
ansi_1252
  9
$INSBASE
 10
0.0
 20
0.0
 30
0.0
  9
$EXTMIN
 10
0.0
 20
0.0
 30
0.0
  9
$EXTMAX
 10
11.0
 20
8.5
 30
0.0
  9
$LIMMIN
 10
0.0
 20
0.0
  9
$LIMMAX
 10
11.0
 20
8.5
  9
$ORTHOMODE
 70
     0
  9
$REGENMODE
 70
     1
  9
$FILLMODE
 70
     1
  9
$QTEXTMODE
 70
     0
  9
$MIRRTEXT
 70
     1
  9
$DRAGMODE
 70
     2
  9
$LTSCALE
 40
1.0
  9
$OSMODE
 70
    37
  9
$ATTMODE
 70
     1
  9
$TEXTSIZE
 40
0.1377952756
  9
$TRACEWID
 40
0.05
  9
$TEXTSTYLE
  7
STANDARD
  9
$CLAYER
  8
0
  9
$CELTYPE
  6
BYLAYER
  9
$CECOLOR
 62
   256
  9
$DIMSCALE
 40
1.0
  9
$DIMASZ
 40
0.1
  9
$DIMEXO
 40
0.05
  9
$DIMDLI
 40
0.38
  9
$DIMRND
 40
0.0
  9
$DIMDLE
 40
0.0
  9
$DIMEXE
 40
0.125
  9
$DIMTP
 40
0.0
  9
$DIMTM
 40
0.0
  9
$DIMTXT
 40
0.1111111111
  9
$DIMCEN
 40
0.09
  9
$DIMTSZ
 40
0.0
  9
$DIMTOL
 70
     0
  9
$DIMLIM
 70
     0
  9
$DIMTIH
 70
     1
  9
$DIMTOH
 70
     1
  9
$DIMSE1
 70
     0
  9
$DIMSE2
 70
     0
  9
$DIMTAD
 70
     0
  9
$DIMZIN
 70
     0
  9
$DIMBLK
  1

  9
$DIMASO
 70
     1
  9
$DIMSHO
 70
     1
  9
$DIMPOST
  1

  9
$DIMAPOST
  1

  9
$DIMALT
 70
     0
  9
$DIMALTD
 70
     2
  9
$DIMALTF
 40
25.4
  9
$DIMLFAC
 40
1.0
  9
$DIMTOFL
 70
     0
  9
$DIMTVP
 40
0.0
  9
$DIMTIX
 70
     0
  9
$DIMSOXD
 70
     0
  9
$DIMSAH
 70
     0
  9
$DIMBLK1
  1

  9
$DIMBLK2
  1

  9
$DIMSTYLE
  2
STANDARD
  9
$DIMCLRD
 70
     0
  9
$DIMCLRE
 70
     0
  9
$DIMCLRT
 70
     0
  9
$DIMTFAC
 40
1.0
  9
$DIMGAP
 40
0.06
  9
$LUNITS
 70
     2
  9
$LUPREC
 70
     4
  9
$SKETCHINC
 40
0.1
  9
$FILLETRAD
 40
0.5
  9
$AUNITS
 70
     0
  9
$AUPREC
 70
     2
  9
$MENU
  1
.
  9
$ELEVATION
 40
0.0
  9
$PELEVATION
 40
0.0
  9
$THICKNESS
 40
0.0
  9
$LIMCHECK
 70
     0
  9
$CHAMFERA
 40
0.5
  9
$CHAMFERB
 40
0.5
  9
$SKPOLY
 70
     0
  9
$TDCREATE
 40
2456070.000455937
  9
$TDUPDATE
 40
2456070.000455949
  9
$TDINDWG
 40
0.0000000116
  9
$TDUSRTIMER
 40
0.0000000116
  9
$USRTIMER
 70
     1
  9
$ANGBASE
 50
0.0
  9
$ANGDIR
 70
     0
  9
$PDMODE
 70
     0
  9
$PDSIZE
 40
-1.0
  9
$PLINEWID
 40
0.0
  9
$COORDS
 70
     1
  9
$SPLFRAME
 70
     0
  9
$SPLINETYPE
 70
     6
  9
$SPLINESEGS
 70
     8
  9
$ATTDIA
 70
     0
  9
$ATTREQ
 70
     1
  9
$HANDLING
 70
     1
  9
$HANDSEED
  5
1B3
  9
$SURFTAB1
 70
     6
  9
$SURFTAB2
 70
     6
  9
$SURFTYPE
 70
     6
  9
$SURFU
 70
     6
  9
$SURFV
 70
     6
  9
$UCSNAME
  2

  9
$UCSORG
 10
0.0
 20
0.0
 30
0.0
  9
$UCSXDIR
 10
1.0
 20
0.0
 30
0.0
  9
$UCSYDIR
 10
0.0
 20
1.0
 30
0.0
  9
$PUCSNAME
  2

  9
$PUCSORG
 10
0.0
 20
0.0
 30
0.0
  9
$PUCSXDIR
 10
1.0
 20
0.0
 30
0.0
  9
$PUCSYDIR
 10
0.0
 20
1.0
 30
0.0
  9
$USERI1
 70
     0
  9
$USERI2
 70
     0
  9
$USERI3
 70
     0
  9
$USERI4
 70
     0
  9
$USERI5
 70
     0
  9
$USERR1
 40
0.0
  9
$USERR2
 40
0.0
  9
$USERR3
 40
0.0
  9
$USERR4
 40
0.0
  9
$USERR5
 40
0.0
  9
$WORLDVIEW
 70
     1
  9
$SHADEDGE
 70
     3
  9
$SHADEDIF
 70
    70
  9
$TILEMODE
 70
     1
  9
$MAXACTVP
 70
    64
  9
$PLIMCHECK
 70
     0
  9
$PEXTMIN
 10
1.0000000000E+20
 20
1.0000000000E+20
 30
1.0000000000E+20
  9
$PEXTMAX
 10
-1.0000000000E+20
 20
-1.0000000000E+20
 30
-1.0000000000E+20
  9
$PLIMMIN
 10
0.0
 20
0.0
  9
$PLIMMAX
 10
12.0
 20
9.0
  9
$UNITMODE
 70
     0
  9
$VISRETAIN
 70
     1
  9
$PLINEGEN
 70
     0
  9
$PSLTSCALE
 70
     1
  0
ENDSEC
  0
SECTION
  2
TABLES
  0
TABLE
  2
VPORT
 70
     1
  0
VPORT
  2
*ACTIVE
 70
     0
 10
0.0
 20
0.0
 11
1.0
 21
1.0
 12
5.5
 22
4.25
 13
0.0
 23
0.0
 14
0.5
 24
0.5
 15
0.5
 25
0.5
 16
0.0
 26
0.0
 36
1.0
 17
0.0
 27
0.0
 37
0.0
 40
8.5
 41
1.2941176471
 42
50.0
 43
0.0
 44
0.0
 50
0.0
 51
0.0
 71
     0
 72
  2000
 73
     1
 74
     3
 75
     0
 76
     0
 77
     0
 78
     0
  0
ENDTAB
  0
TABLE
  2
LTYPE
 70
     6
  0
LTYPE
  2
CONTINUOUS
 70
     0
  3
Solid line
 72
    65
 73
     0
 40
0.0
  0
LTYPE
  2
HIDDEN
 70
     0
  3
Hidden __ __ __ __ __ __ __ __ __ __ __ __ __ __
 72
    65
 73
     2
 40
0.075
 49
0.05
 49
-0.025
  0
LTYPE
  2
PHANTOM
 70
     0
  3
Phantom ______  __  __  ______  __  __  ______
 72
    65
 73
     6
 40
0.5
 49
0.25
 49
-0.05
 49
0.05
 49
-0.05
 49
0.05
 49
-0.05
  0
LTYPE
  2
CENTER
 70
     0
  3
Center ____ _ ____ _ ____ _ ____ _ ____ _ ____
 72
    65
 73
     4
 40
0.4
 49
0.25
 49
-0.05
 49
0.05
 49
-0.05
  0
LTYPE
  2
CENTERX2
 70
     0
  3
Center (2x) ________  __  ________  __  _____
 72
    65
 73
     4
 40
0.8
 49
0.5
 49
-0.1
 49
0.1
 49
-0.1
  0
LTYPE
  2
DOT2
 70
     0
  3
Dot (.5x) ........................................
 72
    65
 73
     2
 40
0.025
 49
0.0
 49
-0.025
  0
ENDTAB
  0
TABLE
  2
LAYER
 70
     2
  0
LAYER
  2
0
 70
     0
 62
     7
  6
CONTINUOUS
  0
LAYER
  2
FORMAT
 70
     0
 62
     7
  6
CONTINUOUS
  0
ENDTAB
  0
TABLE
  2
STYLE
 70
     1
  0
STYLE
  2
STANDARD
 70
     0
 40
0.0
 41
1.0
 50
0.0
 71
     0
 42
0.2
  3
txt
  4

  0
ENDTAB
  0
TABLE
  2
VIEW
 70
     0
  0
ENDTAB
  0
TABLE
  2
UCS
 70
     0
  0
ENDTAB
  0
TABLE
  2
APPID
 70
     1
  0
APPID
  2
ACAD
 70
     0
  0
ENDTAB
  0
TABLE
  2
DIMSTYLE
 70
     7
  0
DIMSTYLE
  2
STANDARD
 70
     0
  3

  4

  5

  6

  7

 40
1.0
 41
0.18
 42
0.0625
 43
0.38
 44
0.18
 45
0.0
 46
0.0
 47
0.0
 48
0.0
140
0.18
141
0.09
142
0.0
143
25.4
144
1.0
145
0.0
146
1.0
147
0.09
 71
     0
 72
     0
 73
     1
 74
     1
 75
     0
 76
     0
 77
     0
 78
     0
170
     0
171
     2
172
     0
173
     0
174
     0
175
     0
176
     0
177
     0
178
     0
  0
DIMSTYLE
  2
SLDDIMSTYLE0
 70
     0
  3

  4

  5

  6
NONE
  7
NONE
 40
1.0
 41
0.1
 42
0.0625
 43
0.38
 44
0.0
 45
0.000000001
 46
0.0
 47
0.0
 48
0.0
140
0.0833333333
141
0.09
142
0.0
143
25.4
144
1.0
145
0.0
146
1.0
147
0.0208333333
 71
     0
 72
     0
 73
     1
 74
     1
 75
     0
 76
     0
 77
     0
 78
    12
170
     1
171
     2
172
     0
173
     1
174
     0
175
     0
176
     0
177
     0
178
     0
  0
DIMSTYLE
  2
SLDDIMSTYLE1
 70
     0
  3

  4

  5

  6
NONE
  7
NONE
 40
1.0
 41
0.1
 42
0.0625
 43
0.38
 44
0.0
 45
0.000000001
 46
0.0
 47
0.0
 48
0.0
140
0.0833333333
141
0.09
142
0.0
143
25.4
144
1.0
145
0.0
146
1.0
147
0.0208333333
 71
     0
 72
     0
 73
     1
 74
     1
 75
     0
 76
     0
 77
     0
 78
     4
170
     1
171
     2
172
     0
173
     1
174
     0
175
     0
176
     0
177
     0
178
     0
  0
DIMSTYLE
  2
SLDDIMSTYLE2
 70
     0
  3

  4

  5

  6

  7

 40
1.0
 41
0.1
 42
0.0625
 43
0.38
 44
0.0
 45
0.000000001
 46
0.0
 47
0.0
 48
0.0
140
0.0833333333
141
0.09
142
0.0
143
25.4
144
1.0
145
0.0
146
1.0
147
0.0208333333
 71
     0
 72
     0
 73
     1
 74
     1
 75
     0
 76
     0
 77
     0
 78
     4
170
     1
171
     2
172
     0
173
     1
174
     0
175
     0
176
     0
177
     0
178
     0
  0
DIMSTYLE
  2
SLDDIMSTYLE3
 70
     0
  3

  4

  5

  6

  7

 40
1.0
 41
0.1
 42
0.0625
 43
0.38
 44
0.0
 45
0.000000001
 46
0.0
 47
0.0
 48
0.0
140
0.0833333333
141
0.0
142
0.0
143
25.4
144
1.0
145
0.0
146
1.0
147
0.0208333333
 71
     0
 72
     0
 73
     1
 74
     1
 75
     0
 76
     0
 77
     0
 78
     4
170
     1
171
     2
172
     0
173
     1
174
     0
175
     0
176
     0
177
     0
178
     0
  0
DIMSTYLE
  2
SLDDIMSTYLE4
 70
     0
  3

  4

  5

  6

  7

 40
1.0
 41
0.1
 42
0.0625
 43
0.38
 44
0.0
 45
0.000000001
 46
0.0
 47
0.0
 48
0.0
140
0.0833333333
141
0.0
142
0.0
143
25.4
144
1.0
145
0.0
146
1.0
147
0.0208333333
 71
     0
 72
     0
 73
     1
 74
     1
 75
     0
 76
     0
 77
     0
 78
    12
170
     1
171
     2
172
     0
173
     1
174
     0
175
     0
176
     0
177
     0
178
     0
  0
DIMSTYLE
  2
SLDDIMSTYLE5
 70
     0
  3

  4

  5

  6

  7

 40
1.0
 41
0.1
 42
0.0625
 43
0.38
 44
0.0
 45
0.000000001
 46
0.0
 47
0.0
 48
0.0
140
0.0833333333
141
0.09
142
0.0
143
25.4
144
1.0
145
0.0
146
1.0
147
0.0208333333
 71
     0
 72
     0
 73
     1
 74
     1
 75
     0
 76
     0
 77
     0
 78
     4
170
     1
171
     2
172
     1
173
     1
174
     0
175
     0
176
     0
177
     0
178
     0
  0
ENDTAB
  0
ENDSEC
  0
SECTION
  2
BLOCKS
  0
BLOCK
  8
0
  2
$MODEL_SPACE
 70
     0
 10
0.0
 20
0.0
 30
0.0
  3
$MODEL_SPACE
  1

  0
ENDBLK
  5
21
  8
0
  0
BLOCK
 67
     1
  8
0
  2
$PAPER_SPACE
 70
     0
 10
0.0
 20
0.0
 30
0.0
  3
$PAPER_SPACE
  1

  0
ENDBLK
  5
1D
 67
     1
  8
0
  0
BLOCK
  8
0
  2
_NONE
 70
     0
 10
0.0
 20
0.0
 30
0.0
  3
_NONE
  1

  0
ENDBLK
  5
8A
  8
0
  0
BLOCK
  8
0
  2
*D2
 70
     1
 10
0.0
 20
0.0
 30
0.0
  3
*D2
  1

  0
LINE
  5
8E
  8
0
  6
CONTINUOUS
 62
     7
 10
1.194588559
 20
2.360851073
 30
0.0
 11
1.194588559
 21
2.343952925
 31
0.0
  0
LINE
  5
8F
  8
0
  6
CONTINUOUS
 62
     7
 10
1.194588559
 20
2.343952925
 30
0.0
 11
1.3269959636
 21
2.343952925
 31
0.0
  0
LINE
  5
90
  8
0
  6
CONTINUOUS
 62
     7
 10
1.3269959636
 20
2.343952925
 30
0.0
 11
1.3269959636
 21
2.360851073
 31
0.0
  0
LINE
  5
91
  8
0
  6
CONTINUOUS
 62
     7
 10
1.194588559
 20
2.4646705206
 30
0.0
 11
1.194588559
 21
2.4815686686
 31
0.0
  0
LINE
  5
92
  8
0
  6
CONTINUOUS
 62
     7
 10
1.194588559
 20
2.4815686686
 30
0.0
 11
1.3269959636
 21
2.4815686686
 31
0.0
  0
LINE
  5
93
  8
0
  6
CONTINUOUS
 62
     7
 10
1.3269959636
 20
2.4815686686
 30
0.0
 11
1.3269959636
 21
2.4646705206
 31
0.0
  0
LINE
  5
94
  8
0
  6
CONTINUOUS
 62
     7
 10
1.2607922567
 20
2.8750975476
 30
0.0
 11
1.2607922567
 21
2.4942422845
 31
0.0
  0
TEXT
  5
95
  8
0
  6
CONTINUOUS
 62
     7
 10
1.2838903187
 20
2.2021126459
 30
0.0
 40
0.0833333333
  1
0
 50
90.0
 41
0.7
 11
1.3269959682
 21
2.2021126459
 31
0.0
 73
     1
  0
TEXT
  5
96
  8
0
  6
CONTINUOUS
 62
     7
 10
1.2838903187
 20
2.3819737589
 30
0.0
 40
0.0833333333
  1
0
 50
90.0
 41
0.7
 11
1.3269959682
 21
2.3819737589
 31
0.0
 73
     1
  0
ENDBLK
  5
8D
  8
0
  0
BLOCK
  8
0
  2
*D3
 70
     1
 10
0.0
 20
0.0
 30
0.0
  3
*D3
  1

  0
LINE
  5
9C
  8
0
  6
CONTINUOUS
 62
     7
 10
1.394588559
 20
2.2069931004
 30
0.0
 11
1.394588559
 21
2.1900949524
 31
0.0
  0
LINE
  5
9D
  8
0
  6
CONTINUOUS
 62
     7
 10
1.394588559
 20
2.1900949524
 30
0.0
 11
1.5269959636
 21
2.1900949524
 31
0.0
  0
LINE
  5
9E
  8
0
  6
CONTINUOUS
 62
     7
 10
1.5269959636
 20
2.1900949524
 30
0.0
 11
1.5269959636
 21
2.2069931004
 31
0.0
  0
LINE
  5
9F
  8
0
  6
CONTINUOUS
 62
     7
 10
1.394588559
 20
2.4646705802
 30
0.0
 11
1.394588559
 21
2.4815687282
 31
0.0
  0
LINE
  5
A0
  8
0
  6
CONTINUOUS
 62
     7
 10
1.394588559
 20
2.4815687282
 30
0.0
 11
1.5269959636
 21
2.4815687282
 31
0.0
  0
LINE
  5
A1
  8
0
  6
CONTINUOUS
 62
     7
 10
1.5269959636
 20
2.4815687282
 30
0.0
 11
1.5269959636
 21
2.4646705802
 31
0.0
  0
LINE
  5
A2
  8
0
  6
CONTINUOUS
 62
     7
 10
1.4607922567
 20
3.0750975476
 30
0.0
 11
1.4607922567
 21
2.4942422845
 31
0.0
  0
TEXT
  5
A3
  8
0
  6
CONTINUOUS
 62
     7
 10
1.4838903187
 20
1.8328225653
 30
0.0
 40
0.0833333333
  1
.2000
 50
90.0
 41
0.7
 11
1.5269959682
 21
1.8328225653
 31
0.0
 73
     1
  0
TEXT
  5
A4
  8
0
  6
CONTINUOUS
 62
     7
 10
1.4838903187
 20
2.2281157863
 30
0.0
 40
0.0833333333
  1
5.08
 50
90.0
 41
0.7
 11
1.5269959682
 21
2.2281157863
 31
0.0
 73
     1
  0
ENDBLK
  5
9B
  8
0
  0
BLOCK
  8
0
  2
*D4
 70
     1
 10
0.0
 20
0.0
 30
0.0
  3
*D4
  1

  0
LINE
  5
A9
  8
0
  6
CONTINUOUS
 62
     7
 10
4.194588559
 20
2.1454188917
 30
0.0
 11
4.194588559
 21
2.1285207437
 31
0.0
  0
LINE
  5
AA
  8
0
  6
CONTINUOUS
 62
     7
 10
4.194588559
 20
2.1285207437
 30
0.0
 11
4.3269959636
 21
2.1285207437
 31
0.0
  0
LINE
  5
AB
  8
0
  6
CONTINUOUS
 62
     7
 10
4.3269959636
 20
2.1285207437
 30
0.0
 11
4.3269959636
 21
2.1454188917
 31
0.0
  0
LINE
  5
AC
  8
0
  6
CONTINUOUS
 62
     7
 10
4.194588559
 20
2.4646704518
 30
0.0
 11
4.194588559
 21
2.4815685999
 31
0.0
  0
LINE
  5
AD
  8
0
  6
CONTINUOUS
 62
     7
 10
4.194588559
 20
2.4815685999
 30
0.0
 11
4.3269959636
 21
2.4815685999
 31
0.0
  0
LINE
  5
AE
  8
0
  6
CONTINUOUS
 62
     7
 10
4.3269959636
 20
2.4815685999
 30
0.0
 11
4.3269959636
 21
2.4646704518
 31
0.0
  0
LINE
  5
AF
  8
0
  6
CONTINUOUS
 62
     7
 10
4.2607922567
 20
4.3750975476
 30
0.0
 11
4.2607922567
 21
2.4942422845
 31
0.0
  0
TEXT
  5
B0
  8
0
  6
CONTINUOUS
 62
     7
 10
4.2838903187
 20
1.7096742945
 30
0.0
 40
0.0833333333
  1
3.0000
 50
90.0
 41
0.7
 11
4.3269959682
 21
1.7096742945
 31
0.0
 73
     1
  0
TEXT
  5
B1
  8
0
  6
CONTINUOUS
 62
     7
 10
4.2838903187
 20
2.1665415776
 30
0.0
 40
0.0833333333
  1
76.20
 50
90.0
 41
0.7
 11
4.3269959682
 21
2.1665415776
 31
0.0
 73
     1
  0
ENDBLK
  5
A8
  8
0
  0
BLOCK
  8
0
  2
*D5
 70
     1
 10
0.0
 20
0.0
 30
0.0
  3
*D5
  1

  0
LINE
  5
B6
  8
0
  6
CONTINUOUS
 62
     7
 10
7.194588559
 20
2.0838448297
 30
0.0
 11
7.194588559
 21
2.0669466817
 31
0.0
  0
LINE
  5
B7
  8
0
  6
CONTINUOUS
 62
     7
 10
7.194588559
 20
2.0669466817
 30
0.0
 11
7.3269959636
 21
2.0669466817
 31
0.0
  0
LINE
  5
B8
  8
0
  6
CONTINUOUS
 62
     7
 10
7.3269959636
 20
2.0669466817
 30
0.0
 11
7.3269959636
 21
2.0838448297
 31
0.0
  0
LINE
  5
B9
  8
0
  6
CONTINUOUS
 62
     7
 10
7.194588559
 20
2.4646704702
 30
0.0
 11
7.194588559
 21
2.4815686182
 31
0.0
  0
LINE
  5
BA
  8
0
  6
CONTINUOUS
 62
     7
 10
7.194588559
 20
2.4815686182
 30
0.0
 11
7.3269959636
 21
2.4815686182
 31
0.0
  0
LINE
  5
BB
  8
0
  6
CONTINUOUS
 62
     7
 10
7.3269959636
 20
2.4815686182
 30
0.0
 11
7.3269959636
 21
2.4646704702
 31
0.0
  0
LINE
  5
BC
  8
0
  6
CONTINUOUS
 62
     7
 10
7.2607922567
 20
4.3750975476
 30
0.0
 11
7.2607922567
 21
2.4942422845
 31
0.0
  0
TEXT
  5
BD
  8
0
  6
CONTINUOUS
 62
     7
 10
7.2838903187
 20
1.6481002325
 30
0.0
 40
0.0833333333
  1
6.0000
 50
90.0
 41
0.7
 11
7.3269959682
 21
1.6481002325
 31
0.0
 73
     1
  0
TEXT
  5
BE
  8
0
  6
CONTINUOUS
 62
     7
 10
7.2838903187
 20
2.1049675156
 30
0.0
 40
0.0833333333
  1
152.40
 50
90.0
 41
0.7
 11
7.3269959682
 21
2.1049675156
 31
0.0
 73
     1
  0
ENDBLK
  5
B5
  8
0
  0
BLOCK
  8
0
  2
*D6
 70
     1
 10
0.0
 20
0.0
 30
0.0
  3
*D6
  1

  0
LINE
  5
C3
  8
0
  6
CONTINUOUS
 62
     7
 10
9.994588559
 20
2.0838448297
 30
0.0
 11
9.994588559
 21
2.0669466817
 31
0.0
  0
LINE
  5
C4
  8
0
  6
CONTINUOUS
 62
     7
 10
9.994588559
 20
2.0669466817
 30
0.0
 11
10.1269959636
 21
2.0669466817
 31
0.0
  0
LINE
  5
C5
  8
0
  6
CONTINUOUS
 62
     7
 10
10.1269959636
 20
2.0669466817
 30
0.0
 11
10.1269959636
 21
2.0838448297
 31
0.0
  0
LINE
  5
C6
  8
0
  6
CONTINUOUS
 62
     7
 10
9.994588559
 20
2.4646704702
 30
0.0
 11
9.994588559
 21
2.4815686182
 31
0.0
  0
LINE
  5
C7
  8
0
  6
CONTINUOUS
 62
     7
 10
9.994588559
 20
2.4815686182
 30
0.0
 11
10.1269959636
 21
2.4815686182
 31
0.0
  0
LINE
  5
C8
  8
0
  6
CONTINUOUS
 62
     7
 10
10.1269959636
 20
2.4815686182
 30
0.0
 11
10.1269959636
 21
2.4646704702
 31
0.0
  0
LINE
  5
C9
  8
0
  6
CONTINUOUS
 62
     7
 10
10.0607922567
 20
3.0750975476
 30
0.0
 11
10.0607922567
 21
2.4942422845
 31
0.0
  0
TEXT
  5
CA
  8
0
  6
CONTINUOUS
 62
     7
 10
10.0838903187
 20
1.6481002325
 30
0.0
 40
0.0833333333
  1
8.8000
 50
90.0
 41
0.7
 11
10.1269959682
 21
1.6481002325
 31
0.0
 73
     1
  0
TEXT
  5
CB
  8
0
  6
CONTINUOUS
 62
     7
 10
10.0838903187
 20
2.1049675156
 30
0.0
 40
0.0833333333
  1
223.52
 50
90.0
 41
0.7
 11
10.1269959682
 21
2.1049675156
 31
0.0
 73
     1
  0
ENDBLK
  5
C2
  8
0
  0
BLOCK
  8
0
  2
*D7
 70
     1
 10
0.0
 20
0.0
 30
0.0
  3
*D7
  1

  0
LINE
  5
D0
  8
0
  6
CONTINUOUS
 62
     7
 10
1.0274010453
 20
2.9913012454
 30
0.0
 11
1.0105028973
 21
2.9913012454
 31
0.0
  0
LINE
  5
D1
  8
0
  6
CONTINUOUS
 62
     7
 10
1.0105028973
 20
2.9913012454
 30
0.0
 11
1.0105028973
 21
2.8588938408
 31
0.0
  0
LINE
  5
D2
  8
0
  6
CONTINUOUS
 62
     7
 10
1.0105028973
 20
2.8588938408
 30
0.0
 11
1.0274010453
 21
2.8588938408
 31
0.0
  0
LINE
  5
D3
  8
0
  6
CONTINUOUS
 62
     7
 10
1.1312204928
 20
2.9913012454
 30
0.0
 11
1.1481186409
 21
2.9913012454
 31
0.0
  0
LINE
  5
D4
  8
0
  6
CONTINUOUS
 62
     7
 10
1.1481186409
 20
2.9913012454
 30
0.0
 11
1.1481186409
 21
2.8588938408
 31
0.0
  0
LINE
  5
D5
  8
0
  6
CONTINUOUS
 62
     7
 10
1.1481186409
 20
2.8588938408
 30
0.0
 11
1.1312204928
 21
2.8588938408
 31
0.0
  0
LINE
  5
D6
  8
0
  6
CONTINUOUS
 62
     7
 10
1.2107922567
 20
2.9250975476
 30
0.0
 11
1.1607922567
 21
2.9250975476
 31
0.0
  0
TEXT
  5
D7
  8
0
  6
CONTINUOUS
 62
     7
 10
0.8686626181
 20
2.9019994857
 30
0.0
 40
0.0833333333
  1
0
 50
0.0
 41
0.7
 11
0.8686626181
 21
2.8588938362
 31
0.0
 73
     1
  0
TEXT
  5
D8
  8
0
  6
CONTINUOUS
 62
     7
 10
1.0485237312
 20
2.9019994857
 30
0.0
 40
0.0833333333
  1
0
 50
0.0
 41
0.7
 11
1.0485237312
 21
2.8588938362
 31
0.0
 73
     1
  0
ENDBLK
  5
CF
  8
0
  0
BLOCK
  8
0
  2
*D8
 70
     1
 10
0.0
 20
0.0
 30
0.0
  3
*D8
  1

  0
LINE
  5
DD
  8
0
  6
CONTINUOUS
 62
     7
 10
0.8735430727
 20
3.1913012454
 30
0.0
 11
0.8566449247
 21
3.1913012454
 31
0.0
  0
LINE
  5
DE
  8
0
  6
CONTINUOUS
 62
     7
 10
0.8566449247
 20
3.1913012454
 30
0.0
 11
0.8566449247
 21
3.0588938408
 31
0.0
  0
LINE
  5
DF
  8
0
  6
CONTINUOUS
 62
     7
 10
0.8566449247
 20
3.0588938408
 30
0.0
 11
0.8735430727
 21
3.0588938408
 31
0.0
  0
LINE
  5
E0
  8
0
  6
CONTINUOUS
 62
     7
 10
1.1312205524
 20
3.1913012454
 30
0.0
 11
1.1481187004
 21
3.1913012454
 31
0.0
  0
LINE
  5
E1
  8
0
  6
CONTINUOUS
 62
     7
 10
1.1481187004
 20
3.1913012454
 30
0.0
 11
1.1481187004
 21
3.0588938408
 31
0.0
  0
LINE
  5
E2
  8
0
  6
CONTINUOUS
 62
     7
 10
1.1481187004
 20
3.0588938408
 30
0.0
 11
1.1312205524
 21
3.0588938408
 31
0.0
  0
LINE
  5
E3
  8
0
  6
CONTINUOUS
 62
     7
 10
1.4107922567
 20
3.1250975476
 30
0.0
 11
1.1607922567
 21
3.1250975476
 31
0.0
  0
TEXT
  5
E4
  8
0
  6
CONTINUOUS
 62
     7
 10
0.4993725375
 20
3.1019994857
 30
0.0
 40
0.0833333333
  1
.2000
 50
0.0
 41
0.7
 11
0.4993725375
 21
3.0588938362
 31
0.0
 73
     1
  0
TEXT
  5
E5
  8
0
  6
CONTINUOUS
 62
     7
 10
0.8946657586
 20
3.1019994857
 30
0.0
 40
0.0833333333
  1
5.08
 50
0.0
 41
0.7
 11
0.8946657586
 21
3.0588938362
 31
0.0
 73
     1
  0
ENDBLK
  5
DC
  8
0
  0
BLOCK
  8
0
  2
*D9
 70
     1
 10
0.0
 20
0.0
 30
0.0
  3
*D9
  1

  0
LINE
  5
EA
  8
0
  6
CONTINUOUS
 62
     7
 10
0.811968864
 20
4.4913012454
 30
0.0
 11
0.795070716
 21
4.4913012454
 31
0.0
  0
LINE
  5
EB
  8
0
  6
CONTINUOUS
 62
     7
 10
0.795070716
 20
4.4913012454
 30
0.0
 11
0.795070716
 21
4.3588938408
 31
0.0
  0
LINE
  5
EC
  8
0
  6
CONTINUOUS
 62
     7
 10
0.795070716
 20
4.3588938408
 30
0.0
 11
0.811968864
 21
4.3588938408
 31
0.0
  0
LINE
  5
ED
  8
0
  6
CONTINUOUS
 62
     7
 10
1.1312204241
 20
4.4913012454
 30
0.0
 11
1.1481185721
 21
4.4913012454
 31
0.0
  0
LINE
  5
EE
  8
0
  6
CONTINUOUS
 62
     7
 10
1.1481185721
 20
4.4913012454
 30
0.0
 11
1.1481185721
 21
4.3588938408
 31
0.0
  0
LINE
  5
EF
  8
0
  6
CONTINUOUS
 62
     7
 10
1.1481185721
 20
4.3588938408
 30
0.0
 11
1.1312204241
 21
4.3588938408
 31
0.0
  0
LINE
  5
F0
  8
0
  6
CONTINUOUS
 62
     7
 10
4.2107922567
 20
4.4250975476
 30
0.0
 11
1.1607922567
 21
4.4250975476
 31
0.0
  0
TEXT
  5
F1
  8
0
  6
CONTINUOUS
 62
     7
 10
0.3762242668
 20
4.4019994857
 30
0.0
 40
0.0833333333
  1
1.5000
 50
0.0
 41
0.7
 11
0.3762242668
 21
4.3588938362
 31
0.0
 73
     1
  0
TEXT
  5
F2
  8
0
  6
CONTINUOUS
 62
     7
 10
0.8330915499
 20
4.4019994857
 30
0.0
 40
0.0833333333
  1
38.10
 50
0.0
 41
0.7
 11
0.8330915499
 21
4.3588938362
 31
0.0
 73
     1
  0
ENDBLK
  5
E9
  8
0
  0
BLOCK
  8
0
  2
*D10
 70
     1
 10
0.0
 20
0.0
 30
0.0
  3
*D10
  1

  0
LINE
  5
F7
  8
0
  6
CONTINUOUS
 62
     7
 10
0.811968864
 20
5.9913012454
 30
0.0
 11
0.795070716
 21
5.9913012454
 31
0.0
  0
LINE
  5
F8
  8
0
  6
CONTINUOUS
 62
     7
 10
0.795070716
 20
5.9913012454
 30
0.0
 11
0.795070716
 21
5.8588938408
 31
0.0
  0
LINE
  5
F9
  8
0
  6
CONTINUOUS
 62
     7
 10
0.795070716
 20
5.8588938408
 30
0.0
 11
0.811968864
 21
5.8588938408
 31
0.0
  0
LINE
  5
FA
  8
0
  6
CONTINUOUS
 62
     7
 10
1.1312204241
 20
5.9913012454
 30
0.0
 11
1.1481185721
 21
5.9913012454
 31
0.0
  0
LINE
  5
FB
  8
0
  6
CONTINUOUS
 62
     7
 10
1.1481185721
 20
5.9913012454
 30
0.0
 11
1.1481185721
 21
5.8588938408
 31
0.0
  0
LINE
  5
FC
  8
0
  6
CONTINUOUS
 62
     7
 10
1.1481185721
 20
5.8588938408
 30
0.0
 11
1.1312204241
 21
5.8588938408
 31
0.0
  0
LINE
  5
FD
  8
0
  6
CONTINUOUS
 62
     7
 10
4.2107922567
 20
5.9250975476
 30
0.0
 11
1.1607922567
 21
5.9250975476
 31
0.0
  0
TEXT
  5
FE
  8
0
  6
CONTINUOUS
 62
     7
 10
0.3762242668
 20
5.9019994857
 30
0.0
 40
0.0833333333
  1
3.0000
 50
0.0
 41
0.7
 11
0.3762242668
 21
5.8588938362
 31
0.0
 73
     1
  0
TEXT
  5
FF
  8
0
  6
CONTINUOUS
 62
     7
 10
0.8330915499
 20
5.9019994857
 30
0.0
 40
0.0833333333
  1
76.20
 50
0.0
 41
0.7
 11
0.8330915499
 21
5.8588938362
 31
0.0
 73
     1
  0
ENDBLK
  5
F6
  8
0
  0
BLOCK
  8
0
  2
*D11
 70
     1
 10
0.0
 20
0.0
 30
0.0
  3
*D11
  1

  0
LINE
  5
104
  8
0
  6
CONTINUOUS
 62
     7
 10
0.750394802
 20
7.2913012454
 30
0.0
 11
0.7334966539
 21
7.2913012454
 31
0.0
  0
LINE
  5
105
  8
0
  6
CONTINUOUS
 62
     7
 10
0.7334966539
 20
7.2913012454
 30
0.0
 11
0.7334966539
 21
7.1588938408
 31
0.0
  0
LINE
  5
106
  8
0
  6
CONTINUOUS
 62
     7
 10
0.7334966539
 20
7.1588938408
 30
0.0
 11
0.750394802
 21
7.1588938408
 31
0.0
  0
LINE
  5
107
  8
0
  6
CONTINUOUS
 62
     7
 10
1.1312204424
 20
7.2913012454
 30
0.0
 11
1.1481185904
 21
7.2913012454
 31
0.0
  0
LINE
  5
108
  8
0
  6
CONTINUOUS
 62
     7
 10
1.1481185904
 20
7.2913012454
 30
0.0
 11
1.1481185904
 21
7.1588938408
 31
0.0
  0
LINE
  5
109
  8
0
  6
CONTINUOUS
 62
     7
 10
1.1481185904
 20
7.1588938408
 30
0.0
 11
1.1312204424
 21
7.1588938408
 31
0.0
  0
LINE
  5
10A
  8
0
  6
CONTINUOUS
 62
     7
 10
1.4107922567
 20
7.2250975476
 30
0.0
 11
1.1607922567
 21
7.2250975476
 31
0.0
  0
TEXT
  5
10B
  8
0
  6
CONTINUOUS
 62
     7
 10
0.3146502048
 20
7.2019994857
 30
0.0
 40
0.0833333333
  1
4.3000
 50
0.0
 41
0.7
 11
0.3146502048
 21
7.1588938362
 31
0.0
 73
     1
  0
TEXT
  5
10C
  8
0
  6
CONTINUOUS
 62
     7
 10
0.7715174878
 20
7.2019994857
 30
0.0
 40
0.0833333333
  1
109.22
 50
0.0
 41
0.7
 11
0.7715174878
 21
7.1588938362
 31
0.0
 73
     1
  0
ENDBLK
  5
103
  8
0
  0
BLOCK
  8
0
  2
*D12
 70
     1
 10
0.0
 20
0.0
 30
0.0
  3
*D12
  1

  0
ARC
  5
112
  8
0
  6
CONTINUOUS
 62
     7
 10
5.7416705142
 20
7.5250975431
 30
0.0
 40
0.1480359786882233
 50
153.4349488229
 51
206.5650511771
  0
ARC
  5
113
  8
0
  6
CONTINUOUS
 62
     7
 10
5.8154359737
 20
7.5250975431
 30
0.0
 40
0.1480359786882225
 50
333.4349488229
 51
26.5650511771
  0
SOLID
  5
114
  8
0
  6
CONTINUOUS
 62
     7
 10
1.2607922567
 20
7.5250975476
 30
0.0
 11
1.3607922567
 21
7.5150975476
 31
0.0
 12
1.3607922567
 22
7.5350975476
 32
0.0
 13
1.3607922567
 23
7.5350975476
 33
0.0
  0
SOLID
  5
115
  8
0
  6
CONTINUOUS
 62
     7
 10
10.2607922567
 20
7.5250975476
 30
0.0
 11
10.1607922567
 21
7.5350975476
 31
0.0
 12
10.1607922567
 22
7.5150975476
 32
0.0
 13
10.1607922567
 23
7.5150975476
 33
0.0
  0
LINE
  5
116
  8
0
  6
CONTINUOUS
 62
     7
 10
5.9930437296
 20
7.5913012454
 30
0.0
 11
5.9761455816
 21
7.5913012454
 31
0.0
  0
LINE
  5
117
  8
0
  6
CONTINUOUS
 62
     7
 10
5.9761455816
 20
7.5913012454
 30
0.0
 11
5.9761455816
 21
7.4588938408
 31
0.0
  0
LINE
  5
118
  8
0
  6
CONTINUOUS
 62
     7
 10
5.9761455816
 20
7.4588938408
 30
0.0
 11
5.9930437296
 21
7.4588938408
 31
0.0
  0
LINE
  5
119
  8
0
  6
CONTINUOUS
 62
     7
 10
6.3738693701
 20
7.5913012454
 30
0.0
 11
6.3907675181
 21
7.5913012454
 31
0.0
  0
LINE
  5
11A
  8
0
  6
CONTINUOUS
 62
     7
 10
6.3907675181
 20
7.5913012454
 30
0.0
 11
6.3907675181
 21
7.4588938408
 31
0.0
  0
LINE
  5
11B
  8
0
  6
CONTINUOUS
 62
     7
 10
6.3907675181
 20
7.4588938408
 30
0.0
 11
6.3738693701
 21
7.4588938408
 31
0.0
  0
LINE
  5
11C
  8
0
  6
CONTINUOUS
 62
     7
 10
1.2607922567
 20
7.4750975476
 30
0.0
 11
1.2607922567
 21
7.6500975476
 31
0.0
  0
LINE
  5
11D
  8
0
  6
CONTINUOUS
 62
     7
 10
10.2607922567
 20
7.4750975476
 30
0.0
 11
10.2607922567
 21
7.6500975476
 31
0.0
  0
LINE
  5
11E
  8
0
  6
CONTINUOUS
 62
     7
 10
1.2607922567
 20
7.5250975476
 30
0.0
 11
5.5429398169
 21
7.5250975476
 31
0.0
  0
LINE
  5
11F
  8
0
  6
CONTINUOUS
 62
     7
 10
10.2607922567
 20
7.5250975476
 30
0.0
 11
6.4541357935
 21
7.5250975476
 31
0.0
  0
TEXT
  5
120
  8
0
  6
CONTINUOUS
 62
     7
 10
5.6092631096
 20
7.5019994857
 30
0.0625
 40
0.0833333333
  1
9.0000
 41
0.7
 11
5.6092631096
 21
7.4588938362
 31
0.0625
 73
     1
  0
TEXT
  5
121
  8
0
  6
CONTINUOUS
 62
     7
 10
6.0141664155
 20
7.5019994857
 30
0.0625
 40
0.0833333333
  1
228.60
 41
0.7
 11
6.0141664155
 21
7.4588938362
 31
0.0625
 73
     1
  0
ENDBLK
  5
111
  8
0
  0
BLOCK
  8
0
  2
*D13
 70
     1
 10
0.0
 20
0.0
 30
0.0
  3
*D13
  1

  0
ARC
  5
126
  8
0
  6
CONTINUOUS
 62
     7
 10
9.5103382557
 20
7.7250975431
 30
0.0
 40
0.1480359786882233
 50
153.4349488229
 51
206.5650511771
  0
ARC
  5
127
  8
0
  6
CONTINUOUS
 62
     7
 10
9.5841037152
 20
7.7250975431
 30
0.0
 40
0.1480359786882233
 50
333.4349488229
 51
26.5650511771
  0
SOLID
  5
128
  8
0
  6
CONTINUOUS
 62
     7
 10
10.4607922567
 20
7.4250975476
 30
0.0
 11
10.4507922567
 21
7.3250975476
 31
0.0
 12
10.4707922567
 22
7.3250975476
 32
0.0
 13
10.4707922567
 23
7.3250975476
 33
0.0
  0
SOLID
  5
129
  8
0
  6
CONTINUOUS
 62
     7
 10
10.4607922567
 20
2.9250975476
 30
0.0
 11
10.4707922567
 21
3.0250975476
 31
0.0
 12
10.4507922567
 22
3.0250975476
 32
0.0
 13
10.4507922567
 23
3.0250975476
 33
0.0
  0
LINE
  5
12A
  8
0
  6
CONTINUOUS
 62
     7
 10
9.7617114711
 20
7.7913012454
 30
0.0
 11
9.7448133231
 21
7.7913012454
 31
0.0
  0
LINE
  5
12B
  8
0
  6
CONTINUOUS
 62
     7
 10
9.7448133231
 20
7.7913012454
 30
0.0
 11
9.7448133231
 21
7.6588938408
 31
0.0
  0
LINE
  5
12C
  8
0
  6
CONTINUOUS
 62
     7
 10
9.7448133231
 20
7.6588938408
 30
0.0
 11
9.7617114711
 21
7.6588938408
 31
0.0
  0
LINE
  5
12D
  8
0
  6
CONTINUOUS
 62
     7
 10
10.1425371115
 20
7.7913012454
 30
0.0
 11
10.1594352596
 21
7.7913012454
 31
0.0
  0
LINE
  5
12E
  8
0
  6
CONTINUOUS
 62
     7
 10
10.1594352596
 20
7.7913012454
 30
0.0
 11
10.1594352596
 21
7.6588938408
 31
0.0
  0
LINE
  5
12F
  8
0
  6
CONTINUOUS
 62
     7
 10
10.1594352596
 20
7.6588938408
 30
0.0
 11
10.1425371115
 21
7.6588938408
 31
0.0
  0
LINE
  5
130
  8
0
  6
CONTINUOUS
 62
     7
 10
10.3107922567
 20
7.4250975476
 30
0.0
 11
10.5857922567
 21
7.4250975476
 31
0.0
  0
LINE
  5
131
  8
0
  6
CONTINUOUS
 62
     7
 10
10.3107922567
 20
2.9250975476
 30
0.0
 11
10.5857922567
 21
2.9250975476
 31
0.0
  0
LINE
  5
132
  8
0
  6
CONTINUOUS
 62
     7
 10
10.2228035349
 20
7.7250975476
 30
0.0
 11
10.4607922567
 21
7.7250975476
 31
0.0
  0
LINE
  5
133
  8
0
  6
CONTINUOUS
 62
     7
 10
10.4607922567
 20
7.7250975476
 30
0.0
 11
10.4607922567
 21
7.4250975476
 31
0.0
  0
LINE
  5
134
  8
0
  6
CONTINUOUS
 62
     7
 10
10.4607922567
 20
7.4250975476
 30
0.0
 11
10.4607922567
 21
2.9250975476
 31
0.0
  0
TEXT
  5
135
  8
0
  6
CONTINUOUS
 62
     7
 10
9.3779308511
 20
7.7019994857
 30
0.0625
 40
0.0833333333
  1
4.5000
 41
0.7
 11
9.3779308511
 21
7.6588938362
 31
0.0625
 73
     1
  0
TEXT
  5
136
  8
0
  6
CONTINUOUS
 62
     7
 10
9.782834157
 20
7.7019994857
 30
0.0625
 40
0.0833333333
  1
114.30
 41
0.7
 11
9.782834157
 21
7.6588938362
 31
0.0625
 73
     1
  0
ENDBLK
  5
125
  8
0
  0
BLOCK
  8
0
  2
*D14
 70
     1
 10
0.0
 20
0.0
 30
0.0
  3
*D14
  1

  0
ARC
  5
13C
  8
0
  6
CONTINUOUS
 62
     7
 10
2.6896027177
 20
2.4942422707
 30
0.0
 40
0.1516592427488079
 50
153.4349488229
 51
206.5650511771
  0
ARC
  5
13D
  8
0
  6
CONTINUOUS
 62
     7
 10
2.8210996169
 20
2.4942422707
 30
0.0
 40
0.1516592427488079
 50
333.4349488229
 51
26.5650511771
  0
SOLID
  5
13E
  8
0
  6
CONTINUOUS
 62
     7
 10
3.6356231611
 20
3.203850802
 30
0.0
 11
3.6515629006
 21
3.1046241689
 31
0.0
 12
3.6708961004
 22
3.1097454368
 32
0.0
 13
3.6708961004
 23
3.1097454368
 33
0.0
  0
LINE
  5
13F
  8
0
  6
CONTINUOUS
 62
     7
 10
3.0023306049
 20
2.5588256092
 30
0.0
 11
2.9854324569
 21
2.5588256092
 31
0.0
  0
LINE
  5
140
  8
0
  6
CONTINUOUS
 62
     7
 10
2.9854324569
 20
2.5588256092
 30
0.0
 11
2.9854324569
 21
2.4264182047
 31
0.0
  0
LINE
  5
141
  8
0
  6
CONTINUOUS
 62
     7
 10
2.9854324569
 20
2.4264182047
 30
0.0
 11
3.0023306049
 21
2.4264182047
 31
0.0
  0
LINE
  5
142
  8
0
  6
CONTINUOUS
 62
     7
 10
3.321582165
 20
2.5588256092
 30
0.0
 11
3.338480313
 21
2.5588256092
 31
0.0
  0
LINE
  5
143
  8
0
  6
CONTINUOUS
 62
     7
 10
3.338480313
 20
2.5588256092
 30
0.0
 11
3.338480313
 21
2.4264182047
 31
0.0
  0
LINE
  5
144
  8
0
  6
CONTINUOUS
 62
     7
 10
3.338480313
 20
2.4264182047
 30
0.0
 11
3.321582165
 21
2.4264182047
 31
0.0
  0
LINE
  5
145
  8
0
  6
CONTINUOUS
 62
     7
 10
3.6356231611
 20
3.203850802
 30
0.0
 11
3.8235949059
 21
2.4942422845
 31
0.0
  0
LINE
  5
146
  8
0
  6
CONTINUOUS
 62
     7
 10
3.8235949059
 20
2.4942422845
 30
0.0
 11
3.351153961
 21
2.4942422845
 31
0.0
  0
TEXT
  5
147
  8
0
  6
CONTINUOUS
 62
     7
 10
2.5539545672
 20
2.4695238496
 30
0.0625
 40
0.0833333333
  1
%%c
 41
0.7
 11
2.5539545672
 21
2.4264182001
 31
0.0625
 73
     1
  0
TEXT
  5
148
  8
0
  6
CONTINUOUS
 62
     7
 10
2.6797416066
 20
2.4695238496
 30
0.0625
 40
0.0833333333
  1
.9750
 41
0.7
 11
2.6797416066
 21
2.4264182001
 31
0.0625
 73
     1
  0
TEXT
  5
149
  8
0
  6
CONTINUOUS
 62
     7
 10
3.0234532908
 20
2.4695238496
 30
0.0625
 40
0.0833333333
  1
24.77
 41
0.7
 11
3.0234532908
 21
2.4264182001
 31
0.0625
 73
     1
  0
ENDBLK
  5
13B
  8
0
  0
BLOCK
  8
0
  2
*D15
 70
     1
 10
0.0
 20
0.0
 30
0.0
  3
*D15
  1

  0
ARC
  5
14F
  8
0
  6
CONTINUOUS
 62
     7
 10
2.3141303149
 20
2.7342927119
 30
0.0
 40
0.1516592427488077
 50
153.4349488229
 51
206.5650511771
  0
ARC
  5
150
  8
0
  6
CONTINUOUS
 62
     7
 10
2.4456272141
 20
2.7342927119
 30
0.0
 40
0.1516592427488077
 50
333.4349488229
 51
26.5650511771
  0
SOLID
  5
151
  8
0
  6
CONTINUOUS
 62
     7
 10
1.49861264
 20
3.0606213419
 30
0.0
 11
1.540582891
 21
2.9693059651
 31
0.0
 12
1.5578340497
 22
2.9794251312
 32
0.0
 13
1.5578340497
 23
2.9794251312
 33
0.0
  0
LINE
  5
152
  8
0
  6
CONTINUOUS
 62
     7
 10
2.6268582021
 20
2.7988760504
 30
0.0
 11
2.6099600541
 21
2.7988760504
 31
0.0
  0
LINE
  5
153
  8
0
  6
CONTINUOUS
 62
     7
 10
2.6099600541
 20
2.7988760504
 30
0.0
 11
2.6099600541
 21
2.6664686458
 31
0.0
  0
LINE
  5
154
  8
0
  6
CONTINUOUS
 62
     7
 10
2.6099600541
 20
2.6664686458
 30
0.0
 11
2.6268582021
 21
2.6664686458
 31
0.0
  0
LINE
  5
155
  8
0
  6
CONTINUOUS
 62
     7
 10
2.8845356818
 20
2.7988760504
 30
0.0
 11
2.9014338299
 21
2.7988760504
 31
0.0
  0
LINE
  5
156
  8
0
  6
CONTINUOUS
 62
     7
 10
2.9014338299
 20
2.7988760504
 30
0.0
 11
2.9014338299
 21
2.6664686458
 31
0.0
  0
LINE
  5
157
  8
0
  6
CONTINUOUS
 62
     7
 10
2.9014338299
 20
2.6664686458
 30
0.0
 11
2.8845356818
 21
2.6664686458
 31
0.0
  0
LINE
  5
158
  8
0
  6
CONTINUOUS
 62
     7
 10
1.49861264
 20
3.0606213419
 30
0.0
 11
1.6900301276
 21
2.7342927257
 31
0.0
  0
LINE
  5
159
  8
0
  6
CONTINUOUS
 62
     7
 10
1.6900301276
 20
2.7342927257
 30
0.0
 11
2.1624710725
 21
2.7342927257
 31
0.0
  0
TEXT
  5
15A
  8
0
  6
CONTINUOUS
 62
     7
 10
2.1784821644
 20
2.7095742907
 30
0.0625
 40
0.0833333333
  1
%%c
 41
0.7
 11
2.1784821644
 21
2.6664686413
 31
0.0625
 73
     1
  0
TEXT
  5
15B
  8
0
  6
CONTINUOUS
 62
     7
 10
2.3042692038
 20
2.7095742907
 30
0.0625
 40
0.0833333333
  1
.1495
 41
0.7
 11
2.3042692038
 21
2.6664686413
 31
0.0625
 73
     1
  0
TEXT
  5
15C
  8
0
  6
CONTINUOUS
 62
     7
 10
2.647980888
 20
2.7095742907
 30
0.0625
 40
0.0833333333
  1
3.80
 41
0.7
 11
2.647980888
 21
2.6664686413
 31
0.0625
 73
     1
  0
ENDBLK
  5
14E
  8
0
  0
BLOCK
  8
0
  2
*D16
 70
     1
 10
0.0
 20
0.0
 30
0.0
  3
*D16
  1

  0
ARC
  5
161
  8
0
  6
CONTINUOUS
 62
     7
 10
5.579499789
 20
6.054490317
 30
0.0
 40
0.1480359786882225
 50
153.4349488229
 51
206.5650511771
  0
ARC
  5
162
  8
0
  6
CONTINUOUS
 62
     7
 10
5.6532652485
 20
6.054490317
 30
0.0
 40
0.1480359786882225
 50
333.4349488229
 51
26.5650511771
  0
SOLID
  5
163
  8
0
  6
CONTINUOUS
 62
     7
 10
5.0107922567
 20
6.0544903216
 30
0.0
 11
5.1107922567
 21
6.0444903216
 31
0.0
 12
5.1107922567
 22
6.0644903216
 32
0.0
 13
5.1107922567
 23
6.0644903216
 33
0.0
  0
SOLID
  5
164
  8
0
  6
CONTINUOUS
 62
     7
 10
6.5107922567
 20
6.0544903216
 30
0.0
 11
6.4107922567
 21
6.0644903216
 31
0.0
 12
6.4107922567
 22
6.0444903216
 32
0.0
 13
6.4107922567
 23
6.0444903216
 33
0.0
  0
LINE
  5
165
  8
0
  6
CONTINUOUS
 62
     7
 10
5.8308730044
 20
6.1206940193
 30
0.0
 11
5.8139748564
 21
6.1206940193
 31
0.0
  0
LINE
  5
166
  8
0
  6
CONTINUOUS
 62
     7
 10
5.8139748564
 20
6.1206940193
 30
0.0
 11
5.8139748564
 21
5.9882866147
 31
0.0
  0
LINE
  5
167
  8
0
  6
CONTINUOUS
 62
     7
 10
5.8139748564
 20
5.9882866147
 30
0.0
 11
5.8308730044
 21
5.9882866147
 31
0.0
  0
LINE
  5
168
  8
0
  6
CONTINUOUS
 62
     7
 10
6.1501245645
 20
6.1206940193
 30
0.0
 11
6.1670227125
 21
6.1206940193
 31
0.0
  0
LINE
  5
169
  8
0
  6
CONTINUOUS
 62
     7
 10
6.1670227125
 20
6.1206940193
 30
0.0
 11
6.1670227125
 21
5.9882866147
 31
0.0
  0
LINE
  5
16A
  8
0
  6
CONTINUOUS
 62
     7
 10
6.1670227125
 20
5.9882866147
 30
0.0
 11
6.1501245645
 21
5.9882866147
 31
0.0
  0
LINE
  5
16B
  8
0
  6
CONTINUOUS
 62
     7
 10
5.0107922567
 20
6.6250975476
 30
0.0
 11
5.0107922567
 21
5.9294903216
 31
0.0
  0
LINE
  5
16C
  8
0
  6
CONTINUOUS
 62
     7
 10
6.5107922567
 20
6.6250975476
 30
0.0
 11
6.5107922567
 21
5.9294903216
 31
0.0
  0
LINE
  5
16D
  8
0
  6
CONTINUOUS
 62
     7
 10
5.0107922567
 20
6.0544903216
 30
0.0
 11
5.3807690917
 21
6.0544903216
 31
0.0
  0
LINE
  5
16E
  8
0
  6
CONTINUOUS
 62
     7
 10
6.5107922567
 20
6.0544903216
 30
0.0
 11
6.2303910062
 21
6.0544903216
 31
0.0
  0
TEXT
  5
16F
  8
0
  6
CONTINUOUS
 62
     7
 10
5.4470923844
 20
6.0313922597
 30
0.0625
 40
0.0833333333
  1
1.5000
 41
0.7
 11
5.4470923844
 21
5.9882866102
 31
0.0625
 73
     1
  0
TEXT
  5
170
  8
0
  6
CONTINUOUS
 62
     7
 10
5.8519956903
 20
6.0313922597
 30
0.0625
 40
0.0833333333
  1
38.10
 41
0.7
 11
5.8519956903
 21
5.9882866102
 31
0.0625
 73
     1
  0
ENDBLK
  5
160
  8
0
  0
BLOCK
  8
0
  2
*D17
 70
     1
 10
0.0
 20
0.0
 30
0.0
  3
*D17
  1

  0
ARC
  5
175
  8
0
  6
CONTINUOUS
 62
     7
 10
5.2631072161
 20
4.4250975431
 30
0.0
 40
0.1480359786882225
 50
153.4349488229
 51
206.5650511771
  0
ARC
  5
176
  8
0
  6
CONTINUOUS
 62
     7
 10
5.3368726756
 20
4.4250975431
 30
0.0
 40
0.1480359786882225
 50
333.4349488229
 51
26.5650511771
  0
SOLID
  5
177
  8
0
  6
CONTINUOUS
 62
     7
 10
5.489187476
 20
5.1750975476
 30
0.0
 11
5.479187476
 21
5.0750975476
 31
0.0
 12
5.499187476
 22
5.0750975476
 32
0.0
 13
5.499187476
 23
5.0750975476
 33
0.0
  0
SOLID
  5
178
  8
0
  6
CONTINUOUS
 62
     7
 10
5.489187476
 20
3.6750975476
 30
0.0
 11
5.499187476
 21
3.7750975476
 31
0.0
 12
5.479187476
 22
3.7750975476
 32
0.0
 13
5.479187476
 23
3.7750975476
 33
0.0
  0
LINE
  5
179
  8
0
  6
CONTINUOUS
 62
     7
 10
5.5144804315
 20
4.4913012454
 30
0.0
 11
5.4975822834
 21
4.4913012454
 31
0.0
  0
LINE
  5
17A
  8
0
  6
CONTINUOUS
 62
     7
 10
5.4975822834
 20
4.4913012454
 30
0.0
 11
5.4975822834
 21
4.3588938408
 31
0.0
  0
LINE
  5
17B
  8
0
  6
CONTINUOUS
 62
     7
 10
5.4975822834
 20
4.3588938408
 30
0.0
 11
5.5144804315
 21
4.3588938408
 31
0.0
  0
LINE
  5
17C
  8
0
  6
CONTINUOUS
 62
     7
 10
5.8337319916
 20
4.4913012454
 30
0.0
 11
5.8506301396
 21
4.4913012454
 31
0.0
  0
LINE
  5
17D
  8
0
  6
CONTINUOUS
 62
     7
 10
5.8506301396
 20
4.4913012454
 30
0.0
 11
5.8506301396
 21
4.3588938408
 31
0.0
  0
LINE
  5
17E
  8
0
  6
CONTINUOUS
 62
     7
 10
5.8506301396
 20
4.3588938408
 30
0.0
 11
5.8337319916
 21
4.3588938408
 31
0.0
  0
LINE
  5
17F
  8
0
  6
CONTINUOUS
 62
     7
 10
5.0607922567
 20
5.1750975476
 30
0.0
 11
5.614187476
 21
5.1750975476
 31
0.0
  0
LINE
  5
180
  8
0
  6
CONTINUOUS
 62
     7
 10
5.0607922567
 20
3.6750975476
 30
0.0
 11
5.614187476
 21
3.6750975476
 31
0.0
  0
LINE
  5
181
  8
0
  6
CONTINUOUS
 62
     7
 10
5.489187476
 20
5.1750975476
 30
0.0
 11
5.489187476
 21
4.5081993968
 31
0.0
  0
LINE
  5
182
  8
0
  6
CONTINUOUS
 62
     7
 10
5.489187476
 20
3.6750975476
 30
0.0
 11
5.489187476
 21
4.3419956985
 31
0.0
  0
TEXT
  5
183
  8
0
  6
CONTINUOUS
 62
     7
 10
5.1306998115
 20
4.4019994857
 30
0.0625
 40
0.0833333333
  1
1.5000
 41
0.7
 11
5.1306998115
 21
4.3588938362
 31
0.0625
 73
     1
  0
TEXT
  5
184
  8
0
  6
CONTINUOUS
 62
     7
 10
5.5356031173
 20
4.4019994857
 30
0.0625
 40
0.0833333333
  1
38.10
 41
0.7
 11
5.5356031173
 21
4.3588938362
 31
0.0625
 73
     1
  0
ENDBLK
  5
174
  8
0
  0
BLOCK
  8
0
  2
*D18
 70
     1
 10
0.0
 20
0.0
 30
0.0
  3
*D18
  1

  0
ARC
  5
1A2
  8
0
  6
CONTINUOUS
 62
     7
 10
1.8319638989
 20
7.6869172886
 30
0.0
 40
0.1480359786882225
 50
153.4349488229
 51
206.5650511771
  0
ARC
  5
1A3
  8
0
  6
CONTINUOUS
 62
     7
 10
1.8441552781
 20
7.6869172886
 30
0.0
 40
0.1480359786882225
 50
333.4349488229
 51
26.5650511771
  0
SOLID
  5
1A4
  8
0
  6
CONTINUOUS
 62
     7
 10
1.1607922567
 20
8.0119172932
 30
0.0
 11
1.1707922567
 21
8.1119172932
 31
0.0
 12
1.1507922567
 22
8.1119172932
 32
0.0
 13
1.1507922567
 23
8.1119172932
 33
0.0
  0
SOLID
  5
1A5
  8
0
  6
CONTINUOUS
 62
     7
 10
1.1607922567
 20
7.8869172932
 30
0.0
 11
1.1507922567
 21
7.7869172932
 31
0.0
 12
1.1707922567
 22
7.7869172932
 32
0.0
 13
1.1707922567
 23
7.7869172932
 33
0.0
  0
LINE
  5
1A6
  8
0
  6
CONTINUOUS
 62
     7
 10
2.0217630156
 20
7.7531209909
 30
0.0
 11
2.0048648676
 21
7.7531209909
 31
0.0
  0
LINE
  5
1A7
  8
0
  6
CONTINUOUS
 62
     7
 10
2.0048648676
 20
7.7531209909
 30
0.0
 11
2.0048648676
 21
7.6207135864
 31
0.0
  0
LINE
  5
1A8
  8
0
  6
CONTINUOUS
 62
     7
 10
2.0048648676
 20
7.6207135864
 30
0.0
 11
2.0217630156
 21
7.6207135864
 31
0.0
  0
LINE
  5
1A9
  8
0
  6
CONTINUOUS
 62
     7
 10
2.2794404953
 20
7.7531209909
 30
0.0
 11
2.2963386434
 21
7.7531209909
 31
0.0
  0
LINE
  5
1AA
  8
0
  6
CONTINUOUS
 62
     7
 10
2.2963386434
 20
7.7531209909
 30
0.0
 11
2.2963386434
 21
7.6207135864
 31
0.0
  0
LINE
  5
1AB
  8
0
  6
CONTINUOUS
 62
     7
 10
2.2963386434
 20
7.6207135864
 30
0.0
 11
2.2794404953
 21
7.6207135864
 31
0.0
  0
LINE
  5
1AC
  8
0
  6
CONTINUOUS
 62
     7
 10
1.2107922567
 20
8.0119172932
 30
0.0
 11
1.0357922567
 21
8.0119172932
 31
0.0
  0
LINE
  5
1AD
  8
0
  6
CONTINUOUS
 62
     7
 10
1.2107922567
 20
7.8869172932
 30
0.0
 11
1.0357922567
 21
7.8869172932
 31
0.0
  0
LINE
  5
1AE
  8
0
  6
CONTINUOUS
 62
     7
 10
1.6332332016
 20
7.6869172932
 30
0.0
 11
1.1607922567
 21
7.6869172932
 31
0.0
  0
LINE
  5
1AF
  8
0
  6
CONTINUOUS
 62
     7
 10
1.1607922567
 20
7.6869172932
 30
0.0
 11
1.1607922567
 21
7.8869172932
 31
0.0
  0
LINE
  5
1B0
  8
0
  6
CONTINUOUS
 62
     7
 10
1.1607922567
 20
8.0119172932
 30
0.0
 11
1.1607922567
 21
8.1119172932
 31
0.0
  0
TEXT
  5
1B1
  8
0
  6
CONTINUOUS
 62
     7
 10
1.6995564943
 20
7.6638192313
 30
0.0
 40
0.0833333333
  1
.1250
 41
0.7
 11
1.6995564943
 21
7.6207135818
 31
0.0
 73
     1
  0
TEXT
  5
1B2
  8
0
  6
CONTINUOUS
 62
     7
 10
2.0428857015
 20
7.6638192313
 30
0.0
 40
0.0833333333
  1
3.18
 41
0.7
 11
2.0428857015
 21
7.6207135818
 31
0.0
 73
     1
  0
ENDBLK
  5
1A1
  8
0
  0
ENDSEC
  0
SECTION
  2
ENTITIES
  0
LINE
  5
45
  8
0
  6
CONTINUOUS
 62
     7
 10
0.329927
 20
8.1920731707
 30
0.0
 11
10.629927
 21
8.1920731707
 31
0.0
  0
LINE
  5
46
  8
0
  6
CONTINUOUS
 62
     7
 10
0.329927
 20
8.1920731707
 30
0.0
 11
0.329927
 21
0.3920731707
 31
0.0
  0
LINE
  5
47
  8
0
  6
CONTINUOUS
 62
     7
 10
10.629927
 20
0.3920731707
 30
0.0
 11
0.329927
 21
0.3920731707
 31
0.0
  0
LINE
  5
48
  8
0
  6
CONTINUOUS
 62
     7
 10
10.629927
 20
0.3920731707
 30
0.0
 11
10.629927
 21
8.1920731707
 31
0.0
  0
LINE
  5
49
  8
0
  6
CONTINUOUS
 62
     7
 10
6.5732271642
 20
1.6275483264
 30
0.0
 11
6.5732271642
 21
0.3920731707
 31
0.0
  0
LINE
  5
4A
  8
0
  6
CONTINUOUS
 62
     7
 10
6.5732271642
 20
0.6049590101
 30
0.0
 11
10.629927
 21
0.6049590101
 31
0.0
  0
LINE
  5
4B
  8
0
  6
CONTINUOUS
 62
     7
 10
6.5732271642
 20
1.1119362457
 30
0.0
 11
10.629927
 21
1.1119362457
 31
0.0
  0
LINE
  5
4C
  8
0
  6
CONTINUOUS
 62
     7
 10
6.5732271642
 20
1.6275483264
 30
0.0
 11
10.629927
 21
1.6275483264
 31
0.0
  0
LINE
  5
4D
  8
0
  6
CONTINUOUS
 62
     7
 10
7.2374605481
 20
1.1119362457
 30
0.0
 11
7.2374605481
 21
0.6049590101
 31
0.0
  0
LINE
  5
4E
  8
0
  6
CONTINUOUS
 62
     7
 10
7.4626479273
 20
0.6049590101
 30
0.0
 11
7.4626479273
 21
0.3920731707
 31
0.0
  0
LINE
  5
4F
  8
0
  6
CONTINUOUS
 62
     7
 10
10.0579917045
 20
1.1119362457
 30
0.0
 11
10.0579917045
 21
0.6049590101
 31
0.0
  0
LINE
  5
50
  8
0
  6
CONTINUOUS
 62
     7
 10
9.4521181534
 20
0.6049590101
 30
0.0
 11
9.4521181534
 21
0.3920731707
 31
0.0
  0
LINE
  5
51
  8
0
  6
CONTINUOUS
 62
     7
 10
8.660927
 20
0.3920731707
 30
0.0
 11
8.660927
 21
0.3072739649
 31
0.0
  0
LINE
  5
52
  8
0
  6
CONTINUOUS
 62
     7
 10
6.692177
 20
0.3920731707
 30
0.0
 11
6.692177
 21
0.3072739649
 31
0.0
  0
LINE
  5
53
  8
0
  6
CONTINUOUS
 62
     7
 10
4.723427
 20
0.3920731707
 30
0.0
 11
4.723427
 21
0.3072739649
 31
0.0
  0
LINE
  5
54
  8
0
  6
CONTINUOUS
 62
     7
 10
2.754677
 20
0.3920731707
 30
0.0
 11
2.754677
 21
0.3072739649
 31
0.0
  0
LINE
  5
55
  8
0
  6
CONTINUOUS
 62
     7
 10
2.754677
 20
0.3920731707
 30
0.0
 11
2.7672319738
 21
0.3575
 31
0.0
  0
LINE
  5
56
  8
0
  6
CONTINUOUS
 62
     7
 10
2.7672319738
 20
0.3575
 30
0.0
 11
2.7414258825
 21
0.3575
 31
0.0
  0
LINE
  5
57
  8
0
  6
CONTINUOUS
 62
     7
 10
2.7414258825
 20
0.3575
 30
0.0
 11
2.754677
 21
0.3920731707
 31
0.0
  0
TEXT
  5
58
  8
0
  6
CONTINUOUS
 62
     7
 10
7.3607888697
 20
1.3727065779
 30
0.0
 40
0.0833333333
  1
holder
 41
0.7
 11
7.3607888697
 21
1.3296009284
 31
0.0
 73
     1
  0
TEXT
  5
59
  8
0
  6
CONTINUOUS
 62
     7
 10
9.5227661725
 20
0.4714963399
 30
0.0
 40
0.1
  1
SHEET 1 OF 1
 41
0.6125
 11
9.5227661725
 21
0.4197695605
 31
0.0
 73
     1
  0
TEXT
  5
5A
  8
0
  6
CONTINUOUS
 62
     7
 10
6.6603527472
 20
0.4714963399
 30
0.0
 40
0.1
  1
SCALE: 1:1
 41
0.7
 11
6.6603527472
 21
0.4197695605
 31
0.0
 73
     1
  0
TEXT
  5
5B
  8
0
  6
CONTINUOUS
 62
     7
 10
7.5196014842
 20
0.4714963399
 30
0.0
 40
0.1
  1
WEIGHT: 
 41
0.7
 11
7.5196014842
 21
0.4197695605
 31
0.0
 73
     1
  0
TEXT
  5
5C
  8
0
  6
CONTINUOUS
 62
     7
 10
10.2277580983
 20
1.0047863044
 30
0.0
 40
0.1
  1
REV
 41
0.7
 11
10.2277580983
 21
0.953059525
 31
0.0
 73
     1
  0
TEXT
  5
5D
  8
0
  6
CONTINUOUS
 62
     7
 10
6.6922521226
 20
1.3727065733
 30
0.0
 40
0.0833333333
  1
DWG.  NO.
 41
0.6222222222
 11
6.6922521226
 21
1.3296009238
 31
0.0
 73
     1
  0
TEXT
  5
5E
  8
0
  6
CONTINUOUS
 62
     7
 10
6.7819743105
 20
0.7287562288
 30
0.0
 40
0.25
  1
A
 41
0.7
 11
6.7819743105
 21
0.5994392803
 31
0.0
 73
     1
  0
TEXT
  5
5F
  8
0
  6
CONTINUOUS
 62
     7
 10
6.7819743105
 20
1.0047863044
 30
0.0
 40
0.1
  1
SIZE
 41
0.7
 11
6.7819743105
 21
0.953059525
 31
0.0
 73
     1
  0
TEXT
  5
60
  8
0
  6
CONTINUOUS
 62
     7
 10
6.6954759413
 20
1.5114484697
 30
0.0
 40
0.0833333333
  1
TITLE:
 41
0.7
 11
6.6954759413
 21
1.4683428202
 31
0.0
 73
     1
  0
TEXT
  5
61
  8
0
  6
CONTINUOUS
 62
     7
 10
7.3786948277
 20
1.0565137619
 30
0.0
 40
0.06
  1
MATERIAL
 41
0.7
 11
7.3786948277
 21
1.0254776943
 31
0.0
 73
     1
  0
TEXT
  5
62
  8
0
  6
CONTINUOUS
 62
     7
 10
1.7387909509
 20
0.2382301798
 30
0.0
 40
0.09375
  1
5
 41
0.7
 11
1.7387909509
 21
0.1897363241
 31
0.0
 73
     1
  0
TEXT
  5
63
  8
0
  6
CONTINUOUS
 62
     7
 10
3.723800327
 20
0.2413675069
 30
0.0
 40
0.09375
  1
4
 41
0.7
 11
3.723800327
 21
0.1928736512
 31
0.0
 73
     1
  0
TEXT
  5
64
  8
0
  6
CONTINUOUS
 62
     7
 10
5.6324457277
 20
0.2392629393
 30
0.0
 40
0.09375
  1
3
 41
0.7
 11
5.6324457277
 21
0.1907690836
 31
0.0
 73
     1
  0
TEXT
  5
65
  8
0
  6
CONTINUOUS
 62
     7
 10
7.6059721724
 20
0.2400828902
 30
0.0
 40
0.09375
  1
2
 41
0.7
 11
7.6059721724
 21
0.1915890345
 31
0.0
 73
     1
  0
TEXT
  5
66
  8
0
  6
CONTINUOUS
 62
     7
 10
9.6619921328
 20
0.2290157671
 30
0.0
 40
0.09375
  1
1
 41
0.7
 11
9.6619921328
 21
0.1805219114
 31
0.0
 73
     1
  0
TEXT
  5
67
  8
0
  6
CONTINUOUS
 62
     7
 10
7.3814308608
 20
0.7882152383
 30
0.0
 40
0.06
  1
FINISH
 41
0.7
 11
7.3814308608
 21
0.7571791706
 31
0.0
 73
     1
  0
CIRCLE
  5
68
  8
0
  6
CONTINUOUS
 62
     7
 10
5.0107922567
 20
5.1750975476
 30
0.0
 40
0.4874999999999998
  0
CIRCLE
  5
69
  8
0
  6
CONTINUOUS
 62
     7
 10
6.5107922567
 20
5.1750975476
 30
0.0
 40
0.4875000000000007
  0
CIRCLE
  5
6A
  8
0
  6
CONTINUOUS
 62
     7
 10
8.0107922567
 20
5.1750975476
 30
0.0
 40
0.4875000000000007
  0
CIRCLE
  5
6B
  8
0
  6
CONTINUOUS
 62
     7
 10
9.5107922567
 20
5.1750975476
 30
0.0
 40
0.4874999999999989
  0
CIRCLE
  5
6C
  8
0
  6
CONTINUOUS
 62
     7
 10
3.5107922567
 20
5.1750975476
 30
0.0
 40
0.4874999999999998
  0
CIRCLE
  5
6D
  8
0
  6
CONTINUOUS
 62
     7
 10
2.0107922567
 20
5.1750975476
 30
0.0
 40
0.4874999999999998
  0
CIRCLE
  5
6E
  8
0
  6
CONTINUOUS
 62
     7
 10
5.0107922567
 20
6.6750975476
 30
0.0
 40
0.4875000000000007
  0
CIRCLE
  5
6F
  8
0
  6
CONTINUOUS
 62
     7
 10
6.5107922567
 20
6.6750975476
 30
0.0
 40
0.4874999999999998
  0
CIRCLE
  5
70
  8
0
  6
CONTINUOUS
 62
     7
 10
8.0107922567
 20
6.6750975476
 30
0.0
 40
0.4875000000000007
  0
CIRCLE
  5
71
  8
0
  6
CONTINUOUS
 62
     7
 10
9.5107922567
 20
6.6750975476
 30
0.0
 40
0.4875000000000007
  0
CIRCLE
  5
72
  8
0
  6
CONTINUOUS
 62
     7
 10
3.5107922567
 20
6.6750975476
 30
0.0
 40
0.4874999999999998
  0
CIRCLE
  5
73
  8
0
  6
CONTINUOUS
 62
     7
 10
2.0107922567
 20
6.6750975476
 30
0.0
 40
0.4875000000000007
  0
CIRCLE
  5
74
  8
0
  6
CONTINUOUS
 62
     7
 10
5.0107922567
 20
3.6750975476
 30
0.0
 40
0.4875000000000007
  0
CIRCLE
  5
75
  8
0
  6
CONTINUOUS
 62
     7
 10
6.5107922567
 20
3.6750975476
 30
0.0
 40
0.4875000000000007
  0
CIRCLE
  5
76
  8
0
  6
CONTINUOUS
 62
     7
 10
9.5107922567
 20
3.6750975476
 30
0.0
 40
0.4875000000000007
  0
CIRCLE
  5
77
  8
0
  6
CONTINUOUS
 62
     7
 10
3.5107922567
 20
3.6750975476
 30
0.0
 40
0.4875000000000003
  0
CIRCLE
  5
78
  8
0
  6
CONTINUOUS
 62
     7
 10
2.0107922567
 20
3.6750975476
 30
0.0
 40
0.4875000000000007
  0
CIRCLE
  5
79
  8
0
  6
CONTINUOUS
 62
     7
 10
1.4607922567
 20
7.2250975476
 30
0.0
 40
0.0747500000000001
  0
CIRCLE
  5
7A
  8
0
  6
CONTINUOUS
 62
     7
 10
10.0607922567
 20
7.2250975476
 30
0.0
 40
0.0747500000000016
  0
CIRCLE
  5
7B
  8
0
  6
CONTINUOUS
 62
     7
 10
10.0607922567
 20
3.1250975476
 30
0.0
 40
0.0747499999999999
  0
CIRCLE
  5
7C
  8
0
  6
CONTINUOUS
 62
     7
 10
1.4607922567
 20
3.1250975476
 30
0.0
 40
0.0747500000000001
  0
CIRCLE
  5
7D
  8
0
  6
CONTINUOUS
 62
     7
 10
4.2607922567
 20
5.9250975476
 30
0.0
 40
0.0747500000000008
  0
CIRCLE
  5
7E
  8
0
  6
CONTINUOUS
 62
     7
 10
7.2607922567
 20
5.9250975476
 30
0.0
 40
0.0747500000000008
  0
CIRCLE
  5
7F
  8
0
  6
CONTINUOUS
 62
     7
 10
4.2607922567
 20
4.4250975476
 30
0.0
 40
0.0747500000000008
  0
CIRCLE
  5
80
  8
0
  6
CONTINUOUS
 62
     7
 10
7.2607922567
 20
4.4250975476
 30
0.0
 40
0.0747499999999999
  0
CIRCLE
  5
81
  8
0
  6
CONTINUOUS
 62
     7
 10
8.0107922567
 20
3.6750975476
 30
0.0
 40
0.4875000000000007
  0
LINE
  5
82
  8
0
  6
CONTINUOUS
 62
     7
 10
10.2607922567
 20
7.4250975476
 30
0.0
 11
1.2607922567
 21
7.4250975476
 31
0.0
  0
LINE
  5
83
  8
0
  6
CONTINUOUS
 62
     7
 10
1.2607922567
 20
7.4250975476
 30
0.0
 11
1.2607922567
 21
2.9250975476
 31
0.0
  0
LINE
  5
84
  8
0
  6
CONTINUOUS
 62
     7
 10
1.2607922567
 20
2.9250975476
 30
0.0
 11
10.2607922567
 21
2.9250975476
 31
0.0
  0
LINE
  5
85
  8
0
  6
CONTINUOUS
 62
     7
 10
10.2607922567
 20
2.9250975476
 30
0.0
 11
10.2607922567
 21
7.4250975476
 31
0.0
  0
DIMENSION
  5
86
  8
0
  6
CONTINUOUS
 62
     7
  2
*D2
 10
1.2607922567
 20
2.9250975476
 30
0.0
 11
1.2607922567
 21
2.3481774652
 31
0.0
 70
   102
  3
SLDDIMSTYLE0
 13
1.2607922567
 23
2.9250975476
 33
0.0
 14
1.2607922567
 24
2.4942422845
 34
0.0
  0
DIMENSION
  5
97
  8
0
  6
CONTINUOUS
 62
     7
  2
*D3
 10
1.2607922567
 20
2.9250975476
 30
0.0
 11
1.4607922567
 21
2.1635324249
 31
0.0
 70
   102
  3
SLDDIMSTYLE1
 13
1.4607922567
 23
3.1250975476
 33
0.0
 14
1.4607922567
 24
2.4942422845
 34
0.0
  0
DIMENSION
  5
A5
  8
0
  6
CONTINUOUS
 62
     7
  2
*D4
 10
1.2607922567
 20
2.9250975476
 30
0.0
 11
4.2607922567
 21
2.1019582895
 31
0.0
 70
   102
  3
SLDDIMSTYLE1
 13
4.2607922567
 23
4.4250975476
 33
0.0
 14
4.2607922567
 24
2.4942422845
 34
0.0
  0
DIMENSION
  5
B2
  8
0
  6
CONTINUOUS
 62
     7
  2
*D5
 10
1.2607922567
 20
2.9250975476
 30
0.0
 11
7.2607922567
 21
2.0711712585
 31
0.0
 70
   102
  3
SLDDIMSTYLE1
 13
7.2607922567
 23
4.4250975476
 33
0.0
 14
7.2607922567
 24
2.4942422845
 34
0.0
  0
DIMENSION
  5
BF
  8
0
  6
CONTINUOUS
 62
     7
  2
*D6
 10
1.2607922567
 20
2.9250975476
 30
0.0
 11
10.0607922567
 21
2.0711712585
 31
0.0
 70
   102
  3
SLDDIMSTYLE1
 13
10.0607922567
 23
3.1250975476
 33
0.0
 14
10.0607922567
 24
2.4942422845
 34
0.0
  0
DIMENSION
  5
CC
  8
0
  6
CONTINUOUS
 62
     7
  2
*D7
 10
1.2607922567
 20
2.9250975476
 30
0.0
 11
1.0147274374
 21
2.9250975476
 31
0.0
 70
    38
  3
SLDDIMSTYLE0
 13
1.2607922567
 23
2.9250975476
 33
0.0
 14
1.1607922567
 24
2.9250975476
 34
0.0
  0
DIMENSION
  5
D9
  8
0
  6
CONTINUOUS
 62
     7
  2
*D8
 10
1.2607922567
 20
2.9250975476
 30
0.0
 11
0.8300823971
 21
3.1250975476
 31
0.0
 70
    38
  3
SLDDIMSTYLE1
 13
1.4607922567
 23
3.1250975476
 33
0.0
 14
1.1607922567
 24
3.1250975476
 34
0.0
  0
DIMENSION
  5
E6
  8
0
  6
CONTINUOUS
 62
     7
  2
*D9
 10
1.2607922567
 20
2.9250975476
 30
0.0
 11
0.7685082618
 21
4.4250975476
 31
0.0
 70
    38
  3
SLDDIMSTYLE1
 13
4.2607922567
 23
4.4250975476
 33
0.0
 14
1.1607922567
 24
4.4250975476
 34
0.0
  0
DIMENSION
  5
F3
  8
0
  6
CONTINUOUS
 62
     7
  2
*D10
 10
1.2607922567
 20
2.9250975476
 30
0.0
 11
0.7685082618
 21
5.9250975476
 31
0.0
 70
    38
  3
SLDDIMSTYLE1
 13
4.2607922567
 23
5.9250975476
 33
0.0
 14
1.1607922567
 24
5.9250975476
 34
0.0
  0
DIMENSION
  5
100
  8
0
  6
CONTINUOUS
 62
     7
  2
*D11
 10
1.2607922567
 20
2.9250975476
 30
0.0
 11
0.7377212308
 21
7.2250975476
 31
0.0
 70
    38
  3
SLDDIMSTYLE1
 13
1.4607922567
 23
7.2250975476
 33
0.0
 14
1.1607922567
 24
7.2250975476
 34
0.0
  0
DIMENSION
  5
10D
  8
0
  6
CONTINUOUS
 62
     7
  2
*D12
 10
10.2607922567
 20
7.5250975476
 30
0.0
 11
5.9985378052
 21
7.5250975476
 31
0.0
 70
   160
  1
(<>)
  3
SLDDIMSTYLE2
 13
1.2607922567
 23
7.4250975476
 33
0.0
 14
10.2607922567
 24
7.4250975476
 34
0.0
  0
DIMENSION
  5
122
  8
0
  6
CONTINUOUS
 62
     7
  2
*D13
 10
10.4607922567
 20
2.9250975476
 30
0.0
 11
10.4607922567
 21
7.7250975476
 31
0.0
 70
   160
  1
(<>)
  3
SLDDIMSTYLE2
 13
10.2607922567
 23
7.4250975476
 33
0.0
 14
10.2607922567
 24
2.9250975476
 34
0.0
 50
90.0
  0
DIMENSION
  5
137
  8
0
  6
CONTINUOUS
 62
     7
  2
*D14
 10
3.3859613524
 20
4.1463442933
 30
0.0
 11
2.9445487181
 21
2.4942422845
 31
0.0
 70
   163
  1
(<>)
  3
SLDDIMSTYLE3
 15
3.6356231611
 25
3.203850802
 35
0.0
 40
0.0
  0
DIMENSION
  5
14A
  8
0
  6
CONTINUOUS
 62
     7
  2
*D15
 10
1.4229718735
 20
3.1895737534
 30
0.0
 11
2.5382892476
 21
2.7342927257
 31
0.0
 70
   163
  1
(<>)
  3
SLDDIMSTYLE4
 15
1.49861264
 25
3.0606213419
 35
0.0
 40
0.0
  0
DIMENSION
  5
15D
  8
0
  6
CONTINUOUS
 62
     7
  2
*D16
 10
6.5107922567
 20
6.0544903216
 30
0.0
 11
5.805580049
 21
6.0544903216
 31
0.0
 70
   160
  1
(<>)
  3
SLDDIMSTYLE2
 13
5.0107922567
 23
6.6750975476
 33
0.0
 14
6.5107922567
 24
6.6750975476
 34
0.0
  0
DIMENSION
  5
171
  8
0
  6
CONTINUOUS
 62
     7
  2
*D17
 10
5.489187476
 20
3.6750975476
 30
0.0
 11
5.489187476
 21
4.4250975476
 31
0.0
 70
   160
  1
(<>)
  3
SLDDIMSTYLE2
 13
5.0107922567
 23
5.1750975476
 33
0.0
 14
5.0107922567
 24
3.6750975476
 34
0.0
 50
90.0
  0
LINE
  5
185
  8
0
  6
CONTINUOUS
 62
     7
 10
1.2607922567
 20
7.8869172932
 30
0.0
 11
10.2607922567
 21
7.8869172932
 31
0.0
  0
LINE
  5
186
  8
0
  6
CONTINUOUS
 62
     7
 10
1.2607922567
 20
7.8869172932
 30
0.0
 11
1.2607922567
 21
8.0119172932
 31
0.0
  0
LINE
  5
187
  8
0
  6
CONTINUOUS
 62
     7
 10
1.2607922567
 20
8.0119172932
 30
0.0
 11
10.2607922567
 21
8.0119172932
 31
0.0
  0
LINE
  5
188
  8
0
  6
CONTINUOUS
 62
     7
 10
10.2607922567
 20
7.8869172932
 30
0.0
 11
10.2607922567
 21
8.0119172932
 31
0.0
  0
LINE
  5
189
  8
0
  6
HIDDEN
 62
     7
 10
1.3860422567
 20
8.0119172932
 30
0.0
 11
1.3860422567
 21
7.8869172932
 31
0.0
  0
LINE
  5
18A
  8
0
  6
HIDDEN
 62
     7
 10
1.5355422567
 20
7.8869172932
 30
0.0
 11
1.5355422567
 21
8.0119172932
 31
0.0
  0
LINE
  5
18B
  8
0
  6
HIDDEN
 62
     7
 10
9.9860422567
 20
8.0119172932
 30
0.0
 11
9.9860422567
 21
7.8869172932
 31
0.0
  0
LINE
  5
18C
  8
0
  6
HIDDEN
 62
     7
 10
10.1355422567
 20
7.8869172932
 30
0.0
 11
10.1355422567
 21
8.0119172932
 31
0.0
  0
LINE
  5
18D
  8
0
  6
HIDDEN
 62
     7
 10
1.5232922567
 20
8.0119172932
 30
0.0
 11
1.5232922567
 21
7.8869172932
 31
0.0
  0
LINE
  5
18E
  8
0
  6
HIDDEN
 62
     7
 10
2.4982922567
 20
7.8869172932
 30
0.0
 11
2.4982922567
 21
8.0119172932
 31
0.0
  0
LINE
  5
18F
  8
0
  6
HIDDEN
 62
     7
 10
3.0232922567
 20
8.0119172932
 30
0.0
 11
3.0232922567
 21
7.8869172932
 31
0.0
  0
LINE
  5
190
  8
0
  6
HIDDEN
 62
     7
 10
3.9982922567
 20
7.8869172932
 30
0.0
 11
3.9982922567
 21
8.0119172932
 31
0.0
  0
LINE
  5
191
  8
0
  6
HIDDEN
 62
     7
 10
9.0232922567
 20
8.0119172932
 30
0.0
 11
9.0232922567
 21
7.8869172932
 31
0.0
  0
LINE
  5
192
  8
0
  6
HIDDEN
 62
     7
 10
9.9982922567
 20
7.8869172932
 30
0.0
 11
9.9982922567
 21
8.0119172932
 31
0.0
  0
LINE
  5
193
  8
0
  6
HIDDEN
 62
     7
 10
7.5232922567
 20
8.0119172932
 30
0.0
 11
7.5232922567
 21
7.8869172932
 31
0.0
  0
LINE
  5
194
  8
0
  6
HIDDEN
 62
     7
 10
8.4982922567
 20
7.8869172932
 30
0.0
 11
8.4982922567
 21
8.0119172932
 31
0.0
  0
LINE
  5
195
  8
0
  6
HIDDEN
 62
     7
 10
6.0232922567
 20
8.0119172932
 30
0.0
 11
6.0232922567
 21
7.8869172932
 31
0.0
  0
LINE
  5
196
  8
0
  6
HIDDEN
 62
     7
 10
6.9982922567
 20
7.8869172932
 30
0.0
 11
6.9982922567
 21
8.0119172932
 31
0.0
  0
LINE
  5
197
  8
0
  6
HIDDEN
 62
     7
 10
4.5232922567
 20
8.0119172932
 30
0.0
 11
4.5232922567
 21
7.8869172932
 31
0.0
  0
LINE
  5
198
  8
0
  6
HIDDEN
 62
     7
 10
5.4982922567
 20
7.8869172932
 30
0.0
 11
5.4982922567
 21
8.0119172932
 31
0.0
  0
LINE
  5
199
  8
0
  6
HIDDEN
 62
     7
 10
7.1860422567
 20
8.0119172932
 30
0.0
 11
7.1860422567
 21
7.8869172932
 31
0.0
  0
LINE
  5
19A
  8
0
  6
HIDDEN
 62
     7
 10
7.3355422567
 20
7.8869172932
 30
0.0
 11
7.3355422567
 21
8.0119172932
 31
0.0
  0
LINE
  5
19B
  8
0
  6
HIDDEN
 62
     7
 10
4.1860422567
 20
8.0119172932
 30
0.0
 11
4.1860422567
 21
7.8869172932
 31
0.0
  0
LINE
  5
19C
  8
0
  6
HIDDEN
 62
     7
 10
4.3355422567
 20
7.8869172932
 30
0.0
 11
4.3355422567
 21
8.0119172932
 31
0.0
  0
DIMENSION
  5
19D
  8
0
  6
CONTINUOUS
 62
     7
  2
*D18
 10
1.1607922567
 20
7.8869172932
 30
0.0
 11
1.1607922567
 21
7.6869172932
 31
0.0
 70
   160
  1
(<>)
  3
SLDDIMSTYLE5
 13
1.2607922567
 23
8.0119172932
 33
0.0
 14
1.2607922567
 24
7.8869172932
 34
0.0
 50
90.0
  0
ENDSEC
  0
EOF
